Annonce

Réduire

Charte du Forum

Sur ces forums, il est possible d'aborder n'importe quels sujets, de façon sérieuse ou tout simplement pour délirer !

Afin de préserver son harmonie et éviter les débordements, nous avons établi un ensemble de règles très simple que nous vous demandons de respecter.

1) Les thèmes suivants ne doivent jamais être abordés: La politique, La religion, La haine raciale, La pédophilie. Faites appel à votre bon sens pour éviter tout autre sujet susceptible de provoquer une polémique trop violente.

2) Ce forum est destiné a l'Abandonware (jeux a l'abandon). Les discussions relatives au Warez (requêtes, liens ...) seront systématiquement fermées ou effacées.

3) Lorsque vous lancez un sujet, veillez a ce qu'il soit dans le forum approprié (ne faites pas par exemple une requête dans le forum Discussion générale / Le bar des amis).

4) Avant de poser une question d'ordre technique, assurez vous d'avoir consulté la FAQ Abandonware-France et la FAQ Abandonware-Forums (questions fréquemment posées) ainsi que les topics Important : du forum Aide de jeux / Problèmes techniques !

5) Ne publiez pas d'images dans vos messages qui pourraient choquer les autres visiteurs.

6) Nous détestons le SPAM et le Flood ! Évitez donc de poster des messages inutiles et de façon répétée.

7) Le forum n'est pas un concours de posts. Il est inutile de poster des messages dans le simple but de monter en grade (Le nombre de posts sera décrémenté en cas d'abus).

8) Les sujets privés destinés a une minorité sont interdits. Le forum est une communauté et vos messages sont destinés a l'ensemble des visiteurs. Nous mettons a votre disposition gratuitement des outils tels que Chat (Fermé pour une période indéterminée) ou Messagerie privée.

9) Il est souhaitable de ne pas faire dévier un sujet. Cela n'est pas très sympa pour celui qui a lancé le sujet !

10) Peace and Love ! Les forums sont un endroit de détente, amusez vous, ne vous prenez pas la tête inutilement en public.

11) Les admins et modérateurs sont la pour vous protéger, et non pour vous faire la guerre ! Ils se réservent le droit de déplacer, modifier, fermer ou effacer un sujet en cas de besoin.

12) Concernant la zone arcade sur le forum, toute personne trichant se verra temporairement bannie du forum et TOUT ses scores seront purement et simplement effacés. (Fermée pour une période indéterminée)

13) Ne proposez pas de lien vers du contenu illégal et n'encouragez pas au piratage d'oeuvres protégés par les droits d'auteurs et de Non-Abandonware.

14) Ce forum n'est pas un téléphone portable ! Corollaire à la proposition précédente: la plupart des gens susceptible de vous répondre n'a pas appris à lire le langage "texto/SMS". Vos messages ne sont pas limités à 160 caractères, alors s'il vous plait, écrivez correctement ! Clairement, on ne va pas vous tomber dessus pour un "s" oublié ou pour un accord incorrect, mais pas de "g chrché c je pandan dé mwa"! Copiez-collez votre message dans Word pour profiter du correcteur orthographique, au besoin.

Ces règles sont très importantes, merci de les respecter ! En cas de non respect, vous pourrez recevoir un avertissement, ou en fonction de la faute, être banni temporairement, voir définitivement du forum.
Voir plus
Voir moins

Renegade - Battle for Jacob's Star - le CUE/BIN n'est pas conforme

Réduire
X
 
  • Filtre
  • Heure
  • Afficher
Tout nettoyer
nouveaux messages

  • Renegade - Battle for Jacob's Star - le CUE/BIN n'est pas conforme

    Bonjour à tous!

    Je me permet de signaler un soucis mineur à propos de l'image CD du jeu "Renegade - Battle for Jacob's Star".
    Il se trouve que je possède le jeu, et en essayant la version proposée sur Abandonware, j'ai remarqué un décalage son/vidéo lors de l'intro du jeu, de plus, dans le jeu, à la fin de chaque piste audio on entend le début de la piste suivante, ce qui est un peu gênant.
    J'ai donc testé avec mon propre CD, et là pas de soucis.
    Du coup j'ai réalisé une image disque avec AnyBurn, et j'obtiens un fichier CUE différent: Contrairement à l'image proposée sur le site, je n'ai pas de pregap de 2 secondes avant la première piste audio, et ma première piste est 2 secondes plus longue.
    Voilà ce que ça donne:

    Extrait du fichier CUE Abandonware:

    FILE "Renegade.bin" BINARY
    TRACK 01 MODE1/2352
    INDEX 01 00:00:00
    TRACK 02 AUDIO
    PREGAP 00:02:00
    INDEX 01 39:38:43
    TRACK 03 AUDIO
    INDEX 01 42:12:09
    [...]

    Extrait de mon CUE (Mouarf, désolé...):

    FILE "REN_V1_0.bin" BINARY
    TRACK 01 MODE1/2352
    INDEX 01 00:00:00
    TRACK 02 AUDIO
    INDEX 01 39:40:43
    TRACK 03 AUDIO
    INDEX 01 42:12:09
    [...]

    Si ça vous intéresse, je peux uploader mon image disque sur mega, et vous donner le lien (ce sera du 7zip, je n'ai pas Winrar)

  • #2
    Bonsoir Seth, volontiers, je remplacerai l'ISO par la tienne. Merci beaucoup

    Commentaire


    • #3
      Je voulais l'envoyer par MP, mais à priori ce n'est pas géré ici.

      Voilà le lien vers mon dossier Renegade (Je le supprimerai quand j'aurai confirmation que tu l'a récupéré et testé)

      https://mega.nz/folder/IU8iASyY#99-pjrTb9QKSxHSmO0WCww


      PS: J'ai extrait les pistes audio, si ça t'intéresse...

      Commentaire


      • #4
        Upload du nouveau fichier en 7z. Merci pour ce coup d'oeil (ou plutôt ce coup d'oreille^^).

        Commentaire


        • #5
          Envoyé par Seth Voir le message
          Je voulais l'envoyer par MP, mais à priori ce n'est pas géré ici.

          Pour envoyer des messages en MP il faut juste un peu d'ancienneté sur le site (avoir déjà envoyé une quinzaine de message sur le forum il me semble) pour débloquer cette fonction

          Commentaire

          Chargement...
          X